#TITLE:Turkey March;
#SUBTITLE:;
#ARTIST:Banya;
#TITLETRANSLIT:;
#SUBTITLETRANSLIT:;
#ARTISTTRANSLIT:;
#CREDIT:;
#BANNER:Turkey March-bn.png;
#BACKGROUND:Turkey March-bg.png;
#LYRICSPATH:;
#CDTITLE:!boombaTitle.png;
#MUSIC:Turkey March.mp3;
#OFFSET:-4.348;
#SAMPLESTART:53.400;
#SAMPLELENGTH:12.000;
#SELECTABLE:YES;
#BPMS:0.000=150.000;
#STOPS:;
#BGCHANGES:;
// cache tags:
#FIRSTBEAT:4.000;
#LASTBEAT:224.000;
#SONGFILENAME:Songs/Music V.I.P ^_^/Turkey March [Boomba]/Turkey March.sm;
#HASMUSIC:1;
#HASBANNER:1;
#MUSICLENGTH:101.650;
// end cache tags

//---------------dance-single - ----------------
#NOTES:
     dance-single:
     :
     Hard:
     10:
     1.000,1.000,1.000,0.079,0.797,542.000,257.000,8.000,0.000,0.000:  // measure 1
0000
0000
0000
0000
,  // measure 2
1001
0000
1001
0000
1001
0100
0010
0001
0110
0000
0110
0000
0110
0001
1000
0100
,  // measure 3
1001
0000
0000
0000
1010
0001
0100
0010
1001
0000
0000
0000
1100
0001
0010
0001
,  // measure 4
1100
0001
0010
0100
1001
0100
0010
0100
1001
0000
0000
0000
1010
0000
0101
0000
,  // measure 5
0011
0101
1010
1100
0011
1100
0110
0011
,  // measure 6
0101
0000
1010
0000
1100
0000
0011
0000
1100
0000
0000
0000
1001
0100
0010
0001
,  // measure 7
1100
0000
0000
0000
1010
0001
0100
0010
1001
0000
0000
0000
1100
0001
0010
0100
,  // measure 8
1001
0100
0010
0100
1001
0100
1000
0010
0101
0000
0000
0000
1010
0000
0101
0000
,  // measure 9
0011
0000
0101
0000
1010
0001
0110
0001
1100
0000
1100
0000
0110
0001
1000
0100
,  // measure 10
0011
0100
1000
0001
1010
0100
1000
0001
0110
0000
0000
0000
1010
0000
0011
0000
,  // measure 11
0101
0000
0101
0000
0011
0100
1001
0100
1001
0000
0000
0000
1010
0000
0011
0000
,  // measure 12
0101
0000
0101
0000
0011
0100
1001
0100
1001
0000
0000
0000
0101
0000
0110
0000
,  // measure 13
1100
0000
1100
0000
0101
0010
1001
0100
1001
0000
0000
0000
0101
0000
0110
0000
,  // measure 14
1100
0000
1100
0000
0101
0010
1001
0100
1001
0000
0000
0000
1100
0001
1000
0010
,  // measure 15
0101
0000
0000
0000
0101
1000
0010
0100
0011
0000
0000
0000
1100
0001
0010
0100
,  // measure 16
1001
0010
1000
0001
0110
0001
1000
0010
0101
0000
0000
0000
1100
0000
0110
0000
,  // measure 17
1001
0011
0110
1100
0110
0011
0101
1010
,  // measure 18
0110
1001
0011
0000
,  // measure 19
2000
0000
0000
0000
0000
0000
0000
3000
0020
0000
0000
0000
0000
0000
0000
0030
,  // measure 20
1001
0000
1100
0011
0101
0011
0110
1100
,  // measure 21
1010
0101
0011
0101
1010
1100
0011
1100
,  // measure 22
0011
0000
1001
0101
0011
0101
1010
0110
,  // measure 23
1001
1010
0101
0011
0101
0000
1010
1100
,  // measure 24
0011
0000
1100
0011
0101
0011
0101
1010
,  // measure 25
1100
0110
0011
0101
1010
1100
0011
1100
,  // measure 26
1001
0000
1001
0110
0011
0101
1010
0110
,  // measure 27
0011
0000
0101
0000
0011
0000
0101
0000
1010
0000
1010
0000
1010
0100
0010
0100
,  // measure 28
1001
0000
0000
0000
0010
0001
1000
0100
1000
0000
0000
0000
1000
0100
1000
0001
,  // measure 29
0010
0100
1000
0001
1000
0010
0100
0001
0010
0000
0000
1000
0001
0000
1000
0000
,  // measure 30
0100
1000
0001
0100
1000
0010
0001
0010
,  // measure 31
0100
0000
0000
0000
1000
0000
0000
0000
0100
0000
0000
0000
1000
0100
0010
0001
,  // measure 32
1000
0001
0010
0100
1000
0010
0100
0001
0010
0001
0100
0010
1000
0001
0100
0010
,  // measure 33
1000
0100
0010
0001
1000
0100
0010
0001
1000
0001
0010
0001
0010
0001
1000
0100
,  // measure 34
0010
0001
1000
0100
1000
0010
0100
0001
0010
0001
0100
0001
0010
0100
1000
0010
,  // measure 35
0100
0001
0010
0001
0100
0010
1000
0001
0020
0000
0000
0000
0000
0000
0000
0030
,  // measure 36
1000
0100
0010
0001
0100
0001
0010
0100
1000
0100
1000
0100
0010
0001
1000
0100
,  // measure 37
1000
0100
1000
0100
0010
0001
1000
0100
1000
0001
1000
0001
0010
0001
1000
0001
,  // measure 38
0010
0100
0010
0001
0010
0100
1000
0100
0010
0001
0010
0100
1000
0010
0100
0001
,  // measure 39
0100
0010
1000
0100
0010
0001
1000
0100
0020
0000
0000
0030
1001
0010
1000
0010
,  // measure 40
0101
0000
0000
0000
0011
0100
1000
0100
0011
0000
0000
0000
1010
0001
0100
0010
,  // measure 41
1001
0100
1000
0100
0011
0100
1000
0001
1100
0000
0000
0000
0011
0000
0101
0000
,  // measure 42
0011
1100
1010
0101
0011
0101
1010
0110
,  // measure 43
0011
0000
0101
0000
1010
0000
1001
0000
0110
0000
0000
0000
1001
0100
0010
0001
,  // measure 44
1100
0000
0000
0000
1010
0001
0100
0010
1001
0000
0000
0000
1100
0001
0010
0100
,  // measure 45
0011
0100
1000
0001
1010
0001
0100
0010
1001
0000
0000
0000
1100
0000
0011
1000
,  // measure 46
0101
0000
0110
0000
1001
0000
0110
0100
1001
0000
1100
0000
1010
0000
0101
1000
,  // measure 47
0011
0000
0101
0000
1010
0000
1100
0000
0022
0000
0000
0033
1010
0000
0011
0000
,  // measure 48
0101
0000
0101
0000
0011
0100
1001
0100
1001
0000
0000
0000
1010
0000
0011
0000
,  // measure 49
0101
0000
0101
0000
0011
0100
1001
0100
1001
0000
0000
0000
0101
0000
0110
0000
,  // measure 50
1100
0000
1100
0000
0101
0010
1001
0100
1001
0000
0000
0000
0101
0000
0110
0000
,  // measure 51
1100
0000
1100
0000
0101
0010
1001
0100
1001
0000
0000
0000
1001
0100
0010
0001
,  // measure 52
0110
0000
0000
0000
1100
0010
1000
0001
0110
0000
0000
0000
1001
0100
0010
0001
,  // measure 53
1100
0001
1000
0100
1010
0001
0100
0010
1001
0000
0000
0000
1100
0000
0011
0000
,  // measure 54
0011
0101
0011
0101
1010
1100
0011
0110
,  // measure 55
1001
0000
0000
0000
1010
0000
0000
0000
0220
0000
0000
0000
0000
0000
0000
0330
,  // measure 56
1001
0000
1001
0000
1001
0100
0010
0001
0110
0000
1001
0000
1001
0100
0010
0001
,  // measure 57
0100
0000
0000
0000
;
